慢慢游社区

 找回密码
 我要注册
查看: 1299|回复: 305

[国语单音轨] 【金刚狼3:殊死一战】大陆公映国语版][1080P]2017欧美科幻动作BT[MP4][4.91G][R6.WEB-DL.H264.AAC

  [复制链接]

签到天数: 80 天

[LV.6]常住居民II

39

主题

184

帖子

7万

积分

游-神

Rank: 64Rank: 64Rank: 64Rank: 64Rank: 64Rank: 64Rank: 64Rank: 64Rank: 64Rank: 64Rank: 64Rank: 64Rank: 64Rank: 64Rank: 64Rank: 64

积分
76474
发表于 7 天前 | 显示全部楼层 |阅读模式
本帖最后由 微小信 于 2017-5-16 18:48 编辑

e4833f730af8aa7e29d5ec8deb16b4d2.jpg
◎译  名 金刚狼3:殊死一战/金刚狼:X武器/金刚狼3:罗根/ 金刚狼3:暮狼寻乡/X武器/金刚狼3/卢根(港)/罗根(台)
◎片  名 Logan
◎年  代 2017
◎国  家 美国  
◎类  别 动作/剧情/科幻
◎语  言 普通话
◎字  幕 N/A
◎IMDb评分  8.4/10 from 251988 users
◎IMDb评分  http://imdb.com/title/tt3315342/
◎文件格式 x264 + AAC
◎视频尺寸 1912x804
◎文件大小 4.91 GiB
◎片  长 1h 57m
◎导  演 詹姆斯·曼高德
◎主  演 休·杰克曼 Hugh Jackman
      帕特里克·斯图尔特 Patrick Stewart
      达芙妮·基恩 Dafne Keen
      波伊德·霍布鲁克 Boyd Holbrook
      斯戴芬·莫昌特 Stephen Merchant
      伊丽莎白·罗德里格斯 Elizabeth Rodriguez
      多丽丝·莫尔加多 Doris Morgado
      理查德·E·格兰特 Richard E. Grant
      玛丽·佩顿·斯图尔特 Mary Peyton Stewart
      伊利斯·尼尔 Elise Neal
      艾瑞琪·拉·塞拉 Eriq La Salle
      劳伦·格罗斯 Lauren Gros
      胡安·贾斯帕 Juan Gaspard
      克日什托夫·索什斯基 Krzysztof Soszynski
      萨博·班克森 Saber Bankson

   
   
◎简  介


  2024年,变种人大幅减少,X战警已经解散。身心疲惫的暮狼罗根自愈因子逐渐消失,整天饮酒度日,并靠当司机养家。他在墨西哥边境隐居照顾着饱受病痛折磨的老X教授。有一天,一位陌生女子让罗根去载一个叫劳拉的女孩去加拿大边境,一开始罗根拒绝了,但查尔斯一直在等着这个女孩的出现,劳拉拥有超强的战斗力,而且在许多方面都很像金刚狼。她被一个强大公司的幕后人物所追踪,因为她的DNA里有着连接罗根的秘密。一场无休止的追捕开始了……

花絮

.《金刚狼3:殊死一战》是休·杰克曼最后一次饰演金刚狼,这个角色自第一部《X战警》以来已过去17年。

.英文片名Logan是金刚狼作为普通人的名字,第三部老年金刚狼的能力不断退化,会增加更多“人类”的特性,和女儿的亲情戏也是一大看点,片名暗示了电影的主题,也暗示了狼叔的最终归属。

.影片借鉴了漫威漫画《暮狼寻乡》的一些剧情,不过休·杰克曼说他出演本片的灵感更多来自电影《不可饶恕》。

.本集导演詹姆斯·曼高德也导演了《金刚狼2》。这其实也是休·杰克曼与其合作的第三部电影,他们还合作过《穿越时空爱上你》。

.詹姆斯·曼高德拍摄本片时借鉴了经典西部片《原野奇侠》,在片中也有X教授在赌场酒店里观看了这部影片的场景。

.本片中老年版X教授帕特里克·斯图尔特也迎来告别演出。

.为了找到人气角色劳拉(X-23)的扮演者,剧组搜遍了欧洲、南美、北美、加拿大,最后在西班牙马德里找到了达芙妮·基恩。

.本片主要拍摄地在美国新奥尔良和路易斯安那州,取景地包括NASA的密乔零件装配厂、斯莱德尔市、路易斯安那11号高速公路和知名的51号公路。

.《金刚狼3》在北美的电影分级是R级。
  • General
  • Complete name                  : C:\Users\Administrator\Desktop\[WEBHD独家]金刚狼3:殊死一战(国语) Logan.2017.1080P.R6.WEB-DL.H264.AAC-JBY@WEBHD\[WEBHD独家]金刚狼3:殊死一战(国语) Logan.2017.1080P.R6.WEB-DL.H264.AAC-JBY
  • Format                         : MPEG-4
  • Format profile                 : Base Media
  • Codec ID                       : isom (mp41)
  • File size                      : 4.91 GiB
  • Duration                       : 1h 57mn
  • Overall bit rate mode          : Variable
  • Overall bit rate               : 5 975 Kbps
  • Encoded date                   : UTC 2017-05-15 16:11:12
  • Tagged date                    : UTC 2017-05-15 16:11:12
  • Writing application            : BandiMp4Muxer 1.0
  • Video
  • ID                             : 1
  • Format                         : HEVC
  • Format/Info                    : High Efficiency Video Coding
  • Format profile                 : Main@L4@Main
  • Codec ID                       : hvc1
  • Codec ID/Info                  : High Efficiency Video Coding
  • Duration                       : 1h 57mn
  • Bit rate                       : 5 773 Kbps
  • Width                          : 1 912 pixels
  • Height                         : 804 pixels
  • Display aspect ratio           : 2.40:1
  • Frame rate mode                : Variable
  • Frame rate                     : 25.000 fps
  • Minimum frame rate             : 12.500 fps
  • Maximum frame rate             : 25.000 fps
  • Color space                    : YUV
  • Chroma subsampling             : 4:2:0
  • Bit depth                      : 8 bits
  • Bits/(Pixel*Frame)             : 0.150
  • Stream size                    : 4.74 GiB (97%)
  • Language                       : English
  • Encoded date                   : UTC 2017-05-15 16:11:12
  • Tagged date                    : UTC 2017-05-15 16:11:12
  • Audio
  • ID                             : 2
  • Format                         : AAC
  • Format/Info                    : Advanced Audio Codec
  • Format profile                 : LC
  • Codec ID                       : 40
  • Duration                       : 1h 57mn
  • Bit rate mode                  : Variable
  • Bit rate                       : 192 Kbps
  • Maximum bit rate               : 305 Kbps
  • Channel(s)                     : 2 channels
  • Channel positions              : Front: L R
  • Sampling rate                  : 48.0 KHz
  • Frame rate                     : 46.875 fps (1024 spf)
  • Compression mode               : Lossy
  • Stream size                    : 164 MiB (3%)
  • Language                       : English
  • Encoded date                   : UTC 2017-05-15 16:11:12
  • Tagged date                    : UTC 2017-05-15 16:11:12
  • 15c5f6278e1e4414e6c65ae792e23116.jpg 17ecb51b223941c5s.jpg 700af3ce90c087340483f7a1d327d07c.jpg 84966871fa258238399d3975e3b45c95.jpg 4e978704330aa6c8f3ca6e46d9a538a6.jpg b170109c4c791f87aabd39e345f762a0.jpg 6bd407402509b82as.jpg
  • 游客,查看隐藏内容请回复,如需账号免回复,无广告,免金币可购买VIP组:【了解详情





上一篇:【经典推荐】当幸福来敲门【79届奥斯卡金像奖】威尔·史密斯励志大片,只有努力幸福才会来敲你的门【必看】!
下一篇:[720P&1080P]太阳帝国.Empire.of.the.Sun.1987.BluRay.3Audio.x264-AAC-TYZH.上译公映国语/京译国语/英语
回复

使用道具 举报

签到天数: 96 天

[LV.6]常住居民II

0

主题

250

帖子

378

积分

游-Ⅱ

Rank: 4

积分
378
发表于 7 天前 | 显示全部楼层
在线福利视频          人体艺术          神马影院019820.com
好电影天天看不完
回复 支持 反对

使用道具 举报

该用户从未签到

0

主题

131

帖子

164

积分

游-Ⅱ

Rank: 4

积分
164
发表于 7 天前 | 显示全部楼层
金刚狼系列就差你啦谢谢楼主分享
回复 支持 反对

使用道具 举报

签到天数: 19 天

[LV.4]偶尔看看III

1

主题

314

帖子

317

积分

游-Ⅱ

Rank: 4

积分
317
发表于 7 天前 | 显示全部楼层
多少游戏币才能买到呢?
回复 支持 反对

使用道具 举报

签到天数: 200 天

[LV.7]常住居民III

21

主题

540

帖子

1万

积分

游-圣

Rank: 32Rank: 32Rank: 32Rank: 32Rank: 32Rank: 32Rank: 32Rank: 32

积分
18556
发表于 7 天前 | 显示全部楼层
多谢楼主的最新分享
回复 支持 反对

使用道具 举报

签到天数: 303 天

[LV.8]以坛为家I

0

主题

634

帖子

1733

积分

游-Ⅲ

Rank: 8Rank: 8

积分
1733
发表于 7 天前 | 显示全部楼层
谢谢楼主分享
回复 支持 反对

使用道具 举报

签到天数: 27 天

[LV.4]偶尔看看III

0

主题

66

帖子

373

积分

游-Ⅱ

Rank: 4

积分
373
发表于 7 天前 | 显示全部楼层
感谢制作分享
回复 支持 反对

使用道具 举报

签到天数: 853 天

[LV.10]以坛为家III

0

主题

1354

帖子

1万

积分

游-侠

Rank: 9Rank: 9Rank: 9

积分
10937
发表于 7 天前 | 显示全部楼层
终于等到了,谢谢了
回复 支持 反对

使用道具 举报

签到天数: 17 天

[LV.4]偶尔看看III

0

主题

129

帖子

830

积分

游-Ⅱ

Rank: 4

积分
830
发表于 7 天前 | 显示全部楼层

多谢楼主的最新分享
回复 支持 反对

使用道具 举报

签到天数: 104 天

[LV.6]常住居民II

1

主题

224

帖子

2124

积分

游-Ⅲ

Rank: 8Rank: 8

积分
2124
发表于 7 天前 | 显示全部楼层
在线福利视频          人体艺术          神马影院019820.com
谢谢楼主分享
回复 支持 反对

使用道具 举报

回帖须知
本站严禁灌水回复以及讽刺辱骂分享者的行为,轻者扣分警告,重者直接永久封禁。发帖前请详读:点击进入 。以免永久封禁。
您需要登录后才可以回帖 登录 | 我要注册

本版积分规则

小黑屋|手机版|Archiver|慢慢游社区 ( 站务处理mmy@mmyfilm.com )|

GMT+8, 2017-5-23 05:16 , Processed in 0.065831 second(s), 33 queries .

Powered by Discuz! X3

© 2001-2013 Comsenz Inc.

快速回复 返回顶部 返回列表